#TITLE:Galagzee;
#SUBTITLE:Galaga;
#ARTIST:Zee-Roh;
#TITLETRANSLIT:;
#SUBTITLETRANSLIT:;
#ARTISTTRANSLIT:;
#CREDIT:;
#BANNER:Galagzee.jpg;
#BACKGROUND:Galagzee-bg.jpg;
#LYRICSPATH:;
#CDTITLE:!Syrus-CDTitle.png;
#MUSIC:Galagzee.MP3;
#OFFSET:-0.005;
#SAMPLESTART:12.800;
#SAMPLELENGTH:6.440;
#SELECTABLE:YES;
#BPMS:0.000=149.608,66.000=179.890,100.000=149.610;
#STOPS:65.500=0.150
;
#BGCHANGES:;
// cache tags:
#FIRSTBEAT:0.000;
#LASTBEAT:138.000;
#SONGFILENAME:Songs/Music V.I.P ^_^/Galagzee (Syrus)/Galagzee.sm;
#HASMUSIC:1;
#HASBANNER:1;
#MUSICLENGTH:53.352;
// end cache tags

//---------------dance-single - ----------------
#NOTES:
     dance-single:
     :
     Challenge:
     13:
     1.000,1.000,1.000,0.431,1.000,388.000,83.000,23.000,0.000,0.000:

0010
0000
0000
0000
0000
0000
0000
0000
0000
0000
0000
0000
0020
0000
0000
0230
0000
0000
2300
0000
0000
3200
0000
0000
0300
0000
0000
0000
0000
0000
0001
0000
0010
0000
0100
0000
1000
0000
0100
0000
0010
0000
0001
0000
0010
0000
0100
0000
,
0010
0001
0010
0100
0010
0001
0010
0100
1000
0100
0010
0100
1000
0100
0010
0100
1000
0100
0010
0001
0100
0010
1000
0001
,
0100
0010
1000
0010
0100
0001
1000
0010
0100
0001
1000
0100
0010
0001
0010
0100
1000
0100
0010
0100
1000
0100
0010
0001
,
0010
0100
0010
1001
0000
0000
0100
0000
0000
0110
0000
0000
0001
0000
0000
1001
0000
0000
1000
0000
0000
0101
0000
0000
,
0010
0000
1000
0010
0000
0001
0010
0000
0100
1000
0000
0010
,
0001
0000
0001
0010
0000
1000
0001
0000
1000
0100
0000
0001
,
1100
0000
1000
0011
0000
0100
1010
0000
0010
0101
0000
1000
,
0100
0000
0000
0000
0000
0000
0000
0000
0100
0000
0000
0000
0010
0000
0000
0000
0000
0000
0000
0000
0000
1000
0000
0000
0010
0000
0000
0000
0100
0000
0000
0000
1000
0000
0000
0000
0010
0000
0000
0000
0001
0000
0000
0000
0010
0000
0000
0000
,
0110
0000
1001
0000
0000
0101
0000
0000
0011
0000
0000
0110
0000
0000
0110
0000
,
1100
0000
0101
0000
0000
0110
0000
0000
0101
0000
0000
1010
0000
0000
1001
0000
,
0101
0000
0000
0000
0000
0000
0011
0000
0000
0011
0000
0000
0000
0000
0000
0011
0000
0000
0000
0000
0000
0000
0000
0000
1010
0000
0000
0000
0000
0000
1100
0000
0000
1100
0000
0000
0000
0000
0000
0000
0000
0000
0000
0000
0100
0000
0000
0000
,
0110
0000
0000
0000
0000
0000
0000
0000
0010
0000
0000
0000
0110
0000
0000
0000
0000
0000
0000
0000
0000
0001
0000
0000
0010
0000
0000
0000
0100
0000
0000
0000
1000
0000
0000
0000
0010
0000
0000
0000
0001
0000
0000
0000
0100
0000
0000
0000
,
0010
0000
0010
0011
0000
0010
1010
0000
1000
1001
0000
0001
,
0101
0000
0100
0110
0000
0010
0110
0000
0100
1100
0000
1000
,
1010
0000
0010
0011
0000
0010
0101
0000
0100
1010
0000
0010
,
1100
0000
0100
0011
0000
0001
0100
0001
0010
0001
0100
0001
,
0010
0000
0000
1000
0100
0001
0110
0000
1001
0100
0010
0100
0010
0001
0110
1000
,
0100
0001
0010
0100
1001
0010
1000
0100
0010
0100
1001
0100
0010
0001
0010
0001
,
1010
0000
0001
0010
0101
0010
0001
1000
0110
0001
0010
0100
0010
0001
1010
0100
,
0001
0010
0100
1000
0011
1000
0100
0010
0001
0010
1100
0010
0001
0010
0100
1000
,
0011
0000
0100
1000
0011
1000
0100
1000
0011
0100
1000
0100
0001
0010
1001
0100
,
0010
0100
0010
0001
1010
0001
0010
0100
0001
0100
0011
0100
1000
0100
0010
0100
,
1010
0000
0001
0010
1100
0010
0001
0010
1100
0010
0100
0010
1000
0001
1100
0001
,
0010
0100
0010
0001
0110
1000
0100
0010
0100
0010
1100
0001
0010
0100
0010
0100
,
0011
0000
1000
0100
0011
0100
1000
0000
1001
1001
1001
0000
0000
0000
0000
0000
,
1000
0100
0010
0001
0010
0100
1000
0100
0010
0001
0010
0100
1000
0100
0010
0001
0010
0100
1000
0100
0010
0001
0010
0100
,
0010
0000
0001
0000
0010
0000
2000
0000
0000
3020
0000
0000
0230
0000
0000
0302
0000
0000
0023
0000
0000
0230
0000
0000
0300
0000
0000
0000
0000
0000
2001
0000
0000
0000
0000
0000
0000
0000
0000
0000
0000
0000
0010
0000
0000
0000
0000
0000
,
0000
0000
0000
0100
0000
0000
0000
0000
0000
0001
0000
0000
0000
0000
0000
0000
0000
0000
0000
0100
0000
0001
0000
0000
,
0000
0000
0100
3000
0000
0000
0021
0000
0000
0000
0100
0000
0000
0000
0001
0030
0000
0000
0012
0000
0000
0000
0100
0000
0000
0000
1000
0003
0000
0000
0210
0000
0000
0000
0000
0000
0000
0000
0000
0000
0000
0000
1000
0000
0000
0000
0000
0000
,
0000
0000
0000
0000
0000
0000
0010
0000
0000
0000
0000
0000
0000
0000
0000
0000
0000
0000
0001
0000
0000
0000
0000
0000
0000
0000
0000
0300
0000
0000
2100
0000
0000
0000
0000
0000
0000
0000
0010
0000
0000
0000
0010
0000
0000
0000
0000
0000
,
0000
0000
0001
3000
0000
0000
0210
0000
0000
0000
0001
0000
0000
0000
1000
0300
0000
0000
0012
0000
0000
0000
0100
0000
0000
0000
1000
0003
0000
0000
0021
0000
0000
0000
0000
0000
0000
0000
0000
0000
0000
0000
0100
0000
0000
0000
0000
0000
,
0000
0000
0000
0001
0000
0000
0000
0000
0000
1000
0000
0000
0000
0000
0000
0000
0000
0000
0000
1000
0000
1000
0000
0000
,
0000
0000
1000
0030
0000
0000
0012
0000
0000
0000
0100
0000
0000
0000
1000
0003
0000
0000
0120
0000
0000
0000
0001
0000
0000
0000
0100
0030
0000
0000
2010
0000
0000
0000
0000
0000
0000
0000
0000
0000
0100
0000
0000
0000
0000
0000
0000
0000
,
0000
0000
0000
0000
0001
0000
0000
0000
0000
0000
0000
0000
0000
0000
0000
0000
0010
0000
0000
0000
0000
0000
0000
0000
0000
0000
0000
3000
0210
0000
0000
0000
0000
0000
0000
0000
0001
0000
0000
0000
1000
0000
0000
0000
0000
0000
0000
0000
,
1000
0000
0000
0300
0012
0000
0000
0000
1000
0000
0000
0000
0010
0000
0000
0000
0100
0000
0000
0000
0010
0000
0000
0000
1003
0000
0000
0000
0000
0000
0000
0000
0000
0000
0000
0000
0000
0000
0000
0000
0000
0000
0000
0000
0000
0000
0000
0000
;

//---------------dance-single - ----------------
#NOTES:
     dance-single:
     :
     Hard:
     12:
     1.000,1.000,0.993,0.487,1.000,388.000,53.000,26.000,0.000,1.000:


0010
0000
0000
0000
0000
0000
0000
0000
0000
0000
0000
0000
0200
0000
0000
0320
0000
0000
0032
0000
0000
0023
0000
0000
0030
0000
0000
0000
0000
0000
0001
0000
0010
0000
0100
0000
1000
0000
0100
0000
0010
0000
0001
0000
0010
0000
0100
0000
,
0010
0001
0010
0100
0010
0001
0010
0100
1000
0100
0010
0100
1000
0100
0010
0100
1000
0100
0010
0001
0100
0010
1000
0001
,
0100
0010
1000
0010
0100
0001
1000
0010
0100
0001
1000
0100
0010
0001
0010
0100
1000
0100
0010
0100
1000
0100
0010
0001
,
0010
0100
0010
1001
0000
0000
0100
0000
0000
0110
0000
0000
0001
0000
0000
1001
0000
0000
1000
0000
0000
0101
0000
0000
,
0010
0000
1000
0010
0000
0001
0010
0000
0100
1000
0000
0010
,
0001
0000
0001
0010
0000
1000
0001
0000
1000
0100
0000
0001
,
1100
0000
1000
0011
0000
0100
1010
0000
0010
0101
0000
1000
,
0100
0000
0100
0010
0000
1000
0010
0100
1000
0010
0001
0010
,
0110
0000
1001
0000
0000
0101
0000
0000
0011
0000
0000
0110
0000
0000
0110
0000
,
1100
0000
0101
0000
0000
0110
0000
0000
0101
0000
0000
1010
0000
0000
1001
0000
,
0101
0000
0000
0000
0000
0000
0011
0000
0000
0011
0000
0000
0000
0000
0000
0011
0000
0000
0000
0000
0000
0000
0000
0000
1010
0000
0000
0000
0000
0000
1100
0000
0000
1100
0000
0000
0000
0000
0000
0000
0000
0000
0000
0000
0100
0000
0000
0000
,
0110
0000
0010
0110
0000
0001
0010
0100
1000
0010
0001
0100
,
0010
0000
0010
0011
0000
0010
1010
0000
1000
1001
0000
0001
,
0101
0000
0100
0110
0000
0010
0110
0000
0100
1100
0000
1000
,
1010
0000
0010
0011
0000
0010
0101
0000
0100
1010
0000
0010
,
1100
0000
0100
0011
0000
0001
0100
0001
0010
0001
0100
0001
,
0110
0000
0000
2000
3002
0203
1310
0000
1001
0100
0010
0100
0010
0001
0100
1000
,
0100
0001
0010
0100
1000
0010
1000
0100
0010
0100
1000
0100
0010
0001
0010
0001
,
0110
0000
0001
0010
0100
0010
0001
0100
0010
0001
0010
0100
0010
0001
0010
0100
,
0001
0010
0100
1000
0001
1000
0100
0010
0001
1000
0001
0010
0100
1000
0100
1000
,
0011
0000
0010
1000
0001
1000
0010
1000
0001
0100
1000
0100
0001
0010
0001
0100
,
0010
0100
0010
1000
0001
1000
0010
0100
0001
0100
0010
0100
1000
0100
0010
0100
,
1010
0000
0001
0010
0100
0010
0001
0010
0100
0010
0100
0010
0001
1000
0100
0010
,
0001
0100
0010
1000
0100
1000
0100
0010
0100
0010
0001
1000
0010
0100
0010
0100
,
1010
0000
1000
0100
0010
0100
1000
0000
1001
1001
1001
0000
0000
0000
0000
0000
,
1000
0100
0010
0001
0010
0100
1000
0100
0010
0001
0010
0100
1000
0100
0010
0001
0010
0100
1000
0100
0010
0001
0010
0100
,
0010
0000
0001
0000
0010
0000
2000
0000
0000
3020
0000
0000
0230
0000
0000
0302
0000
0000
0023
0000
0000
0230
0000
0000
0300
0000
0000
0000
0000
0000
2001
0000
0000
0000
0000
0000
0000
0000
0000
0000
0000
0000
0010
0000
0000
0000
0000
0000
,
0000
0000
0000
0100
0000
0000
0000
0000
0000
0001
0000
0000
0000
0000
0000
0000
0000
0000
0000
0100
0000
0001
0000
0000
,
0000
0000
0100
3000
0000
0000
0020
0000
0000
0000
0100
0000
0000
0000
0001
0030
0000
0000
0002
0000
0000
0000
0100
0000
0000
0000
1000
0003
0000
0000
0200
0000
0000
0000
0000
0000
0000
0000
0000
0000
0000
0000
1000
0000
0000
0000
0000
0000
,
0000
0000
0000
0000
0000
0000
0010
0000
0000
0000
0000
0000
0000
0000
0000
0000
0000
0000
0001
0000
0000
0000
0000
0000
0000
0000
0000
0300
0000
0000
2000
0000
0000
0000
0000
0000
0000
0000
0010
0000
0000
0000
0010
0000
0000
0000
0000
0000
,
0000
0000
0001
3000
0000
0000
0200
0000
0000
0000
0001
0000
0000
0000
1000
0300
0000
0000
0002
0000
0000
0000
0100
0000
0000
0000
1000
0003
0000
0000
0020
0000
0000
0000
0000
0000
0000
0000
0000
0000
0000
0000
0100
0000
0000
0000
0000
0000
,
0000
0000
0000
0001
0000
0000
0000
0000
0000
1000
0000
0000
0000
0000
0000
0000
0000
0000
0000
1000
0000
1000
0000
0000
,
0000
0000
1000
0030
0000
0000
0002
0000
0000
0000
0100
0000
0000
0000
1000
0003
0000
0000
0020
0000
0000
0000
0001
0000
0000
0000
0100
0030
0000
0000
2000
0000
0000
0000
0000
0000
0000
0000
0000
0000
0100
0000
0000
0000
0000
0000
0000
0000
,
0000
0001
0000
0000
0010
0000
0000
3200
0000
1000
0010
0000
,
0001
0000
0000
0300
0002
0000
0000
0000
1000
0000
0000
0000
0100
0000
0000
0000
0010
0000
0000
0000
1000
0000
0000
0000
0103
0000
0000
0000
0000
0000
0000
0000
0000
0000
0000
0000
0000
0000
0000
0000
0000
0000
0000
0000
0000
0000
0000
0000
;
